Home News Reviews Forums Shop


Fireburner won't burn CDDA/Audio files with v2.17

Anything else

Fireburner won't burn CDDA/Audio files with v2.17

Postby GoldNKid on Thu Jan 01, 1970 3:43 am

I've been having a lot of difficulty burning CDDA/AUDIO bin/cues. Here's what the cue file looks like:

FILE "blah.BIN" BINARY
TRACK 01 AUDIO
INDEX 01 00:00:00
TRACK 02 AUDIO
INDEX 00 02:05:65
INDEX 01 02:10:00
TRACK 03 AUDIO
INDEX 00 02:41:45
INDEX 01 02:43:63
TRACK 04 AUDIO
INDEX 00 03:20:55
INDEX 01 03:22:28
TRACK 05 AUDIO
INDEX 00 04:02:15
INDEX 01 04:04:18
TRACK 06 AUDIO
INDEX 00 04:52:73
INDEX 01 04:55:03
TRACK 07 AUDIO
INDEX 00 05:24:53
INDEX 01 05:25:68
TRACK 08 AUDIO
INDEX 00 06:01:25
INDEX 01 06:03:45
TRACK 09 AUDIO
INDEX 00 06:42:50
INDEX 01 06:46:15
TRACK 10 AUDIO
INDEX 00 07:09:55
INDEX 01 07:11:40
TRACK 11 AUDIO
INDEX 00 07:42:40
INDEX 01 07:44:70
TRACK 12 AUDIO
INDEX 00 08:25:13
INDEX 01 08:27:40
TRACK 13 AUDIO
INDEX 00 08:46:35
INDEX 01 08:48:20
TRACK 14 AUDIO
INDEX 00 08:59:53
INDEX 01 09:02:05
TRACK 15 AUDIO
INDEX 00 09:19:63
INDEX 01 09:21:48
TRACK 16 AUDIO
INDEX 00 09:51:38
INDEX 01 09:54:00
TRACK 17 AUDIO
INDEX 00 11:17:70
INDEX 01 11:20:33
TRACK 18 AUDIO
INDEX 00 12:00:35
INDEX 01 12:02:65
TRACK 19 AUDIO
INDEX 00 13:27:70
INDEX 01 13:29:25
TRACK 20 AUDIO
INDEX 00 14:03:68
INDEX 01 14:05:38
TRACK 21 AUDIO
INDEX 00 14:32:53
INDEX 01 14:35:53
TRACK 22 AUDIO
INDEX 00 15:19:58
INDEX 01 15:22:05
TRACK 23 AUDIO
INDEX 00 16:06:08
INDEX 01 16:08:35
TRACK 24 AUDIO
INDEX 00 16:35:48
INDEX 01 16:37:53
TRACK 25 AUDIO
INDEX 00 17:51:15
INDEX 01 17:54:33
TRACK 26 AUDIO
INDEX 00 18:49:00
INDEX 01 18:51:53
TRACK 27 AUDIO
INDEX 00 19:11:20
INDEX 01 19:14:23
TRACK 28 AUDIO
INDEX 00 19:58:20
INDEX 01 20:00:35
TRACK 29 AUDIO
INDEX 00 21:24:60
INDEX 01 21:27:25
TRACK 30 AUDIO
INDEX 00 22:15:08
INDEX 01 22:18:03
TRACK 31 AUDIO
INDEX 00 22:41:58
INDEX 01 22:44:25
TRACK 32 AUDIO
INDEX 00 23:05:30
INDEX 01 23:07:33
TRACK 33 AUDIO
INDEX 00 23:29:23
INDEX 01 23:31:35
TRACK 34 AUDIO
INDEX 00 23:56:30
INDEX 01 23:58:43
TRACK 35 AUDIO
INDEX 00 24:26:38
INDEX 01 24:28:23
TRACK 36 AUDIO
INDEX 00 25:21:05
INDEX 01 25:23:18
TRACK 37 AUDIO
INDEX 00 25:58:33
INDEX 01 26:00:38
TRACK 38 AUDIO
INDEX 00 26:36:65
INDEX 01 26:39:03
TRACK 39 AUDIO
INDEX 00 27:18:03
INDEX 01 27:19:63
TRACK 40 AUDIO
INDEX 00 28:08:58
INDEX 01 28:10:70
TRACK 41 AUDIO
INDEX 00 28:39:20
INDEX 01 28:40:73
TRACK 42 AUDIO
INDEX 00 29:29:10
INDEX 01 29:30:70
TRACK 43 AUDIO
INDEX 00 29:48:15
INDEX 01 29:51:40
TRACK 44 AUDIO
INDEX 00 30:44:50
INDEX 01 30:46:55
TRACK 45 AUDIO
INDEX 00 31:58:40
INDEX 01 32:01:08
TRACK 46 AUDIO
INDEX 00 32:34:00
INDEX 01 32:35:60
TRACK 47 AUDIO
INDEX 00 32:54:45
INDEX 01 32:57:70
TRACK 48 AUDIO
INDEX 00 33:54:38
INDEX 01 33:56:43
TRACK 49 AUDIO
INDEX 00 34:18:33
INDEX 01 34:20:45
TRACK 50 AUDIO
INDEX 00 35:15:18
INDEX 01 35:18:13
TRACK 51 AUDIO
INDEX 00 35:37:55
INDEX 01 35:39:40
TRACK 52 AUDIO
INDEX 00 36:06:55
INDEX 01 36:08:68
TRACK 53 AUDIO
INDEX 00 36:28:65
INDEX 01 36:31:03
TRACK 54 AUDIO
INDEX 00 36:43:55
INDEX 01 36:46:13
TRACK 55 AUDIO
INDEX 00 37:02:25
INDEX 01 37:04:38
TRACK 56 AUDIO
INDEX 00 37:19:35
INDEX 01 37:22:03
TRACK 57 AUDIO
INDEX 00 37:39:23
INDEX 01 37:41:08
TRACK 58 AUDIO
INDEX 00 37:59:40
INDEX 01 38:01:23
TRACK 59 AUDIO
INDEX 00 38:11:55
INDEX 01 38:13:40
TRACK 60 AUDIO
INDEX 00 38:28:38
INDEX 01 38:30:50
TRACK 61 AUDIO
INDEX 00 38:58:48
INDEX 01 39:01:35
TRACK 62 AUDIO
INDEX 00 39:37:63
INDEX 01 39:39:45
TRACK 63 AUDIO
INDEX 00 40:08:25
INDEX 01 40:10:38
TRACK 64 AUDIO
INDEX 00 40:30:63
INDEX 01 40:32:48
TRACK 65 AUDIO
INDEX 00 41:18:10
INDEX 01 41:19:70
TRACK 66 AUDIO
INDEX 00 41:40:20
INDEX 01 41:42:25
TRACK 67 AUDIO
INDEX 00 42:26:53
INDEX 01 42:29:45
TRACK 68 AUDIO
INDEX 00 43:06:25
INDEX 01 43:07:58
TRACK 69 AUDIO
INDEX 00 44:10:33
INDEX 01 44:12:73
TRACK 70 AUDIO
INDEX 00 44:47:30
INDEX 01 44:49:08
TRACK 71 AUDIO
INDEX 00 45:24:23
INDEX 01 45:26:35
TRACK 72 AUDIO
INDEX 00 45:43:28
INDEX 01 45:46:23
TRACK 73 AUDIO
INDEX 00 46:29:68
INDEX 01 46:31:25
TRACK 74 AUDIO
INDEX 00 46:59:20
INDEX 01 47:00:45
TRACK 75 AUDIO
INDEX 00 48:08:73
INDEX 01 48:11:68
TRACK 76 AUDIO
INDEX 00 49:04:20
INDEX 01 49:06:05
TRACK 77 AUDIO
INDEX 00 50:05:23
INDEX 01 50:07:28
TRACK 78 AUDIO
INDEX 00 50:58:15
INDEX 01 51:00:28
TRACK 79 AUDIO
INDEX 00 51:14:18
INDEX 01 51:16:03
TRACK 80 AUDIO
INDEX 00 51:42:35
INDEX 01 51:44:48
TRACK 81 AUDIO
INDEX 00 52:51:38
INDEX 01 52:53:13
TRACK 82 AUDIO
INDEX 00 53:29:40
INDEX 01 53:31:53
TRACK 83 AUDIO
INDEX 00 53:55:05
INDEX 01 53:56:65
TRACK 84 AUDIO
INDEX 00 54:19:38
INDEX 01 54:23:40
TRACK 85 AUDIO
INDEX 01 56:43:55
TRACK 86 AUDIO
INDEX 01 58:20:18
TRACK 87 AUDIO
INDEX 00 61:16:28
INDEX 01 61:17:70
TRACK 88 AUDIO
INDEX 00 62:43:53
INDEX 01 62:47:23
TRACK 89 AUDIO
INDEX 00 64:05:33
INDEX 01 64:09:00
TRACK 90 AUDIO
INDEX 00 64:39:68
INDEX 01 64:43:10
TRACK 91 AUDIO
INDEX 00 66:22:60
INDEX 01 66:25:58
TRACK 92 AUDIO
INDEX 00 68:05:73
INDEX 01 68:09:35
TRACK 93 AUDIO
INDEX 00 70:12:08
INDEX 01 70:15:25
TRACK 94 AUDIO
INDEX 00 73:37:35
INDEX 01 73:41:18

I've got several of these and can't burn them. Fireburner loads the cue properly but when I click OK it gives me the error "Access Violation at address 00454666 in module 'Fireburner.exe'. Read of Address 0001545D" and I can't click OK or X out of it. IF I'm lucky I can three finger and kill the firebuner.exe process. If I'm not lucky it gives a "Stack Overflow" error message and locks up the computer.

I'm using Windows XP and have tried both my Plextor 40/12/40 and a Lite-On 48/12/48 and get the same error. I have several other sample CDs that dothe exact same thing. I'm burning "track at once" and have tried to switch to "session at once" and it does the same thing.

I even tried to convert it to ISO using Bin2ISO and burning it but that gave me a coaster. If I use CDMage I can read the first track on the CD but it stops after that which leads me to believe that the cue file is screwed up. Anyone got any ideas?

I might mention that I have no problems trying to burn any other cue/bin files so it's not an ASPI problem or a burner issue. Seems to be related to the cue file. Any help would be greatly appreciated!!!

GoldNKid
GoldNKid
Buffer Underrun
 
Posts: 2
Joined: Tue Aug 06, 2002 6:20 pm

Postby Dio on Thu Jan 01, 1970 3:44 am

GoldNKid,


Have you tried other programs? CDRWin and Nero are worth a try. Burning images is sometimes troublesome for no reason. Some programs seem to be better with other images and some with another ones. For me CDRWin has always delivered with great success. Be sure to use the REAL CDRWin from www.goldenhawk.com . Not the version 5, which blossoms from DiscJuggler's engine.
Dio
Buffer Underrun
 
Posts: 1
Joined: Tue Oct 23, 2001 8:00 pm
Location: Pori, Finland

Thanks for the reply!

Postby GoldNKid on Thu Jan 01, 1970 3:44 am

Dio,

I have tried other CD burning programs. Nero loads the cue file but ends up in an endless loop during the process where you would normally click Burn and never makes it to a point where I can actaully burn the CD. This is why I believe there is a problem with the .cue file as I have no issues burning any other bin/cue imaes with either program.

I've never been able to get CDRWIN 3.x to recognize any of my CD burners (a 48/12/48 Lite-ON, a Plextor 40/12/40, or my trusty SCSI Plextor 8/20). I'm using legitimate Adaptec ASPI drivers because I hae an Adaptec SCSI card in my computer. It recognizes the CD burner as a read drive but says "No Intstalled Drives Supported" under the recording drive option. This stays the same even if I pull the plug on all but one drive.

I've even used Bin2ISO to try and convert the .bin to an .iso but have had no success in burning anything but a coaster with that. I'm stumped and Fireburner has offered no assistance on the cause of the problem. HELP!!!

GoldNKid
GoldNKid
Buffer Underrun
 
Posts: 2
Joined: Tue Aug 06, 2002 6:20 pm

Postby nox on Thu Jan 01, 1970 3:46 am

Have you tried Feurio for audio?
Feurio CD-Manager, Project menu, Create project from cue-sheet file.
nox
Buffer Underrun
 
Posts: 40
Joined: Fri Mar 15, 2002 4:00 pm


Return to General Software Questions

Who is online

Users browsing this forum: No registered users and 0 guests

All Content is Copyright (c) 2001-2017 CDRLabs Inc.